MY STORAGE
MY STORAGE
MY STORAGE
Would you like to react to this message? Create an account in a few clicks or log in to continue.

MY STORAGE

My All Collection
 
HomePortalGalleryLatest imagesSearchRegisterLog in

 

 Ice Age A Mammoth Christmas 2011 DVDRip XviD-aAF

Go down 
AuthorMessage
Darryl
Administrator
Administrator
Darryl


Posts : 448
Reputation : 34
Join date : 2010-05-17
Age : 39
Location : Philippines

Ice Age A Mammoth Christmas 2011 DVDRip XviD-aAF Empty
PostSubject: Ice Age A Mammoth Christmas 2011 DVDRip XviD-aAF   Ice Age A Mammoth Christmas 2011 DVDRip XviD-aAF I_icon_minitimeMon Dec 05, 2011 10:05 pm

[FS+FSC+FJ]Ice Age A Mammoth Christmas 2011 DVDRip XviD-aAF

>>>IMDB Ratings: 6.5/10 from 606 users<<<

Ice Age A Mammoth Christmas 2011 DVDRip XviD-aAF 1670ccd80f

Ice Age A Mammoth Christmas 2011 DVDRip XviD-aAF 646054

Code:

http://www.imdb.com/title/tt2100546/

Ice Age A Mammoth Christmas 2011 DVDRip XviD-aAF 690f5a

Quote:


When Sid (John Leguizamo) accidentally destroys Manny (Ray Romano)’s
heirloom Christmas rock and ends up on Santa’s naughty list, he leads a
hilarious quest to the North Pole to make things right and ends up
making things much worse. Now it’s up to Manny and his prehistoric posse
to band together and save Christmas for the entire world!


Ice Age A Mammoth Christmas 2011 DVDRip XviD-aAF A8f3f6
Ice Age A Mammoth Christmas 2011 DVDRip XviD-aAF C2ea1e418c

Ice Age A Mammoth Christmas 2011 DVDRip XviD-aAF 5e80196287

Ice Age A Mammoth Christmas 2011 DVDRip XviD-aAF 93416025f7

Ice Age A Mammoth Christmas 2011 DVDRip XviD-aAF 837e1c1822

Ice Age A Mammoth Christmas 2011 DVDRip XviD-aAF 52b39b

Quote:


Language: English
Genre: Animation

General
Complete name: aaf-ice.age.a.mammoth.christmas.2011.dvdrip.xvid.avi
Format : AVI
Format/Info: Audio Video Interleave
File size: 175 MiB
Duration : 24mn 27s
Overall bit rate mode: Variable
Overall bit rate : 1 000 Kbps
Writing application: VirtualDubMod 1.5.10.2 (build 2540/release)
Writing library: VirtualDubMod build 2540/release

Video
ID : 0
Format : MPEG-4 Visual
Format profile : Advanced Simple@L5
Format settings, BVOP: 2
Format settings, QPel: No
Format settings, GMC : No warppoints
Format settings, Matrix: Default (H.263)
Codec ID : XVID
Codec ID/Hint: XviD
Duration : 24mn 27s
Bit rate : 859 Kbps
Width: 624 pixels
Height : 352 pixels
Display aspect ratio : 16:9
Frame rate : 25.000 fps
Color space: YUV
Chroma subsampling : 4:2:0
Bit depth: 8 bits
Scan type: Progressive
Compression mode : Lossy
Bits/(Pixel*Frame) : 0.156
Stream size: 150 MiB (86%)
Writing library: XviD 64

Audio
ID : 1
Format : MPEG Audio
Format version : Version 1
Format profile : Layer 3
Mode : Joint stereo
Mode extension : MS Stereo
Codec ID : 55
Codec ID/Hint: MP3
Duration : 24mn 27s
Bit rate mode: Variable
Bit rate : 128 Kbps
Channel(s) : 2 channels
Sampling rate: 48.0 KHz
Compression mode : Lossy
Stream size: 22.4 MiB (13%)
Alignment: Aligned on interleaves
Interleave, duration : 24 ms (0.60 video frame)
Interleave, preload duration : 144 ms
Writing library: LAME3.90.
Encoding settings: -m j -V 4 -q 2 -lowpass 17.6 --abr 128


Ice Age A Mammoth Christmas 2011 DVDRip XviD-aAF 7c4f3f
Ice Age A Mammoth Christmas 2011 DVDRip XviD-aAF B3ab75

Code:

http://www.fileserve.com/file/pGtD2Gr/aaf-ice.age.a.mammoth.christmas.2011.dvdrip.xvid.avi

Ice Age A Mammoth Christmas 2011 DVDRip XviD-aAF 73ef93

Code:

http://www.filesonic.com/file/4104509875/aaf-ice.age.a.mammoth.christmas.2011.dvdrip.xvid.avi

Filejungle Download

Code:

http://www.filejungle.com/f/j3ysqW/aaf-ice.age.a.mammoth.christmas.2011.dvdrip.xvid.avi

Ice Age A Mammoth Christmas 2011 DVDRip XviD-aAF E88cb0
Back to top Go down
http://master.chiefs.tv
 
Ice Age A Mammoth Christmas 2011 DVDRip XviD-aAF
Back to top 
Page 1 of 1
 Similar topics
-
» fast Private Benjamin 2011.mp4 (473.64 MB)
» Philippines Free Text Messaging Service 8/22/2011
» (December 6 2011) PREMIUM ACCOUNT DAILY UPDATE! **FILESONIC,WUPLOAD,HOTFILE**

Permissions in this forum:You cannot reply to topics in this forum
MY STORAGE  :: ETERTAINMENT :: MOVIES LOCAL & INTERNATIONAL-
Jump to:  
Create a forum | ©phpBB | Free forum support | Report an abuse | Forumotion.com